extratorrent - A Fan Made Alternative Login   |   Register
Important Information
Registrations are open now
-------------------------------------

Please click here to register with Extratorrent2 to recieve latest updates, add bookmarks and to post comments.

Friends
Friends

1) ProxyFix

Extratorrent2 > Categories > TV > Marvel's Cloak and Dagger S01E09 Back Breaker 1080p WEBRip x265 AAC 5.1 D0ct0rLew[UTR] torrent


Browse TV torrents

Marvel's Cloak and Dagger S01E09 Back Breaker 1080p WEBRip x265 AAC 5.1 D0ct0rLew[UTR] torrent


Download torrent: Download Marvel's Cloak and Dagger S01E09 Back Breaker 1080p WEBRip x265 AAC 5.1  D0ct0rLew[UTR] torrent Magnet link Bookmark Torrent: Marvel's Cloak and Dagger S01E09 Back Breaker 1080p WEBRip x265 AAC 5.1  D0ct0rLew[UTR]   Marvel's Cloak and Dagger S01E09 Back Breaker 1080p WEBRip x265 AAC 5.1 D0ct0rLew[UTR] torrent
Info hash: 9DE301EBEB05DBF26C7FB90A0E72C778C4F9465C
Category: Categories > TV
Trackers:
View all torrent trackers >
Health:
 seeds: 19 ,  leechers: 8 |  Update >
Torrent language: English English
Total Size: 990.1 MB
Files List:
1    View torrent files >
Uploader:
D0ct0rLew
Torrent added: July 28, 2018, 4:31 am
Users rating: ---, not rated. please login to rate.

Download Marvel's Cloak and Dagger S01E09 Back Breaker 1080p WEBRip x265 AAC 5.1  D0ct0rLew[UTR] torrent



Torrent Description





Media Information



Unique ID : 202336698564995969975803230796915772450 (0x9838A17307D6AEA2BCC4F494074D8C22)
Complete name :Marvel's Cloak and Dagger S01E09 Back Breaker 1080p WEBRip x265 AAC 5.1 D0ct0rLew[UTR].mkv
Format : Matroska
Format version : Version 4 / Version 2
File size : 990 MiB
Duration : 41 min 53 s
Overall bit rate : 3 305 kb/s
Encoded date : UTC 2018-07-27 20:12:39
Writing application : mkvmerge v15.0.0 ('Duel with the Devil') 64-bit
Writing library : libebml v1.3.5 + libmatroska v1.4.5

Video
ID : 3
Format : HEVC
Format/Info : High Efficiency Video Coding
Format profile : Main @Main
Codec ID : V_MPEGH/ISO/HEVC
Duration : 41 min 53 s
Bit rate : 2 882 kb/s
Width : 1 920 pixels
Height : 1 080 pixels
Display aspect ratio : 16:9
Frame rate mode : Constant
Frame rate : 23.976 (24000/1001) FPS
Color space : YUV
Chroma subsampling : 4:2:0
Bit depth : 10 bits
Bits/(Pixel*Frame) : 0.058
Stream size : 864 MiB (87%)
Writing library : x265 2.7+25-e1ed4d609b52:[Windows][MSVC 1914][64 bit] 10bit
Encoding settings : cpuid=1050111 / frame-threads=3 / numa-pools=8 / wpp / no-pmode / no-pme / no-psnr / no-ssim / log-level=2 / input-csp=1 / input-res=1920x1080 / interlace=0 / total-frames=60260 / level-idc=0 / high-tier=1 / uhd-bd=0 / ref=4 / no-allow-non-conformance / no-repeat-headers / annexb / no-aud / no-hrd / info / hash=0 / no-temporal-layers / open-gop / min-keyint=23 / keyint=250 / gop-lookahead=0 / bframes=8 / b-adapt=2 / b-pyramid / bframe-bias=0 / rc-lookahead=90 / lookahead-slices=4 / scenecut=40 / radl=0 / no-intra-refresh / ctu=64 / min-cu-size=8 / no-rect / no-amp / max-tu-size=32 / tu-inter-depth=1 / tu-intra-depth=1 / limit-tu=0 / rdoq-level=2 / dynamic-rd=0.00 / no-ssim-rd / signhide / no-tskip / nr-intra=0 / nr-inter=0 / no-constrained-intra / no-strong-intra-smoothing / max-merge=3 / limit-refs=3 / limit-modes / me=3 / subme=3 / merange=92 / temporal-mvp / weightp / no-weightb / no-analyze-src-pics / deblock=3:3 / sao / no-sao-non-deblock / rd=4 / no-early-skip / rskip / no-fast-intra / no-tskip-fast / no-cu-lossless / no-b-intra / no-splitrd-skip / rdpenalty=0 / psy-rd=1.00 / psy-rdoq=1.00 / no-rd-refine / no-lossless / cbqpoffs=-1 / crqpoffs=-1 / rc=crf / crf=18.5 / qcomp=0.50 / qpstep=4 / stats-write=0 / stats-read=0 / ipratio=1.40 / pbratio=1.30 / aq-mode=3 / aq-strength=1.00 / cutree / zone-count=0 / no-strict-cbr / qg-size=32 / no-rc-grain / qpmax=69 / qpmin=0 / no-const-vbv / sar=0 / overscan=0 / videoformat=5 / range=0 / colorprim=2 / transfer=2 / colormatrix=2 / chromaloc=0 / display-window=0 / max-cll=0,0 / min-luma=0 / max-luma=1023 / log2-max-poc-lsb=8 / vui-timing-info / vui-hrd-info / slices=1 / no-opt-qp-pps / no-opt-ref-list-length-pps / no-multi-pass-opt-rps / scenecut-bias=0.05 / no-opt-cu-delta-qp / no-aq-motion / no-hdr / no-hdr-opt / no-dhdr10-opt / no-idr-recovery-sei / analysis-reuse-level=5 / scale-factor=0 / refine-intra=0 / refine-inter=0 / refine-mv=0 / no-limit-sao / ctu-info=0 / no-lowpass-dct / refine-mv-type=0 / copy-pic=1 / max-ausize-factor=1.0 / no-dynamic-refine / no-single-sei
Default : Yes
Forced : No

Audio
ID : 2
Format : AAC
Format/Info : Advanced Audio Codec
Format profile : LC
Codec ID : A_AAC-2
Duration : 41 min 53 s
Bit rate : 420 kb/s
Channel(s) : 6 channels
Channel positions : Front: L C R, Side: L R, LFE
Sampling rate : 48.0 kHz
Frame rate : 46.875 FPS (1024 SPF)
Compression mode : Lossy
Delay relative to video : 9 ms
Stream size : 126 MiB (13%)
Default : Yes
Forced : No

Text
ID : 1
Format : UTF-8
Codec ID : S_TEXT/UTF8
Codec ID/Info : UTF-8 Plain Text
Duration : 41 min 36 s
Bit rate : 78 b/s
Count of elements : 674
Stream size : 23.8 KiB (0%)
Default : Yes
Forced : No


We have no issue with individuals posting or re-uploading our torrents on a platform we aren't on. However, if this is something you'd like to do, please do so in a 'as-is' format. We ask that you do not create a new torrent, include all descriptions you see above including the UTR logo, tags, notes and screenshots. If you'd like to become a permanent poster on a website we don't post to, feel free to get in contact with a UniTeam member.





Download Marvel's Cloak and Dagger S01E09 Back Breaker 1080p WEBRip x265 AAC 5.1  D0ct0rLew[UTR] torrent


Related Torrents


Comments   (please login to add your comment!)


Home - Browse Torrents

Made with love by an Extratorrent Fan!