extratorrent - A Fan Made Alternative Login   |   Register
Important Information
Registrations are open now
-------------------------------------

Please click here to register with Extratorrent2 to recieve latest updates, add bookmarks and to post comments.

Friends
Friends

1) ProxyFix

Extratorrent2 > Categories > Movies > Game of Thrones Season 2 Complete 720p BluRay With ESubs - ExtraMovies torrent


Browse Movies torrents

Game of Thrones Season 2 Complete 720p BluRay With ESubs - ExtraMovies torrent


Download torrent: Download Game of Thrones Season 2 Complete 720p BluRay With ESubs - ExtraMovies torrent Magnet link Bookmark Torrent: Game of Thrones Season 2 Complete 720p BluRay With ESubs - ExtraMovies   Game of Thrones Season 2 Complete 720p BluRay With ESubs - ExtraMovies torrent
Info hash: DA1EED05F333194FAFA7D56DAE40198150FAFF99
Category: Categories > Movies
Trackers:
View all torrent trackers >
Health:
 seeds: 9 ,  leechers: 7 |  Update >
Torrent language: English English
Total Size: 4.2 GB
Files List:
11    View torrent files >
Uploader:
ExtraMovies
Torrent added: December 1, 2017, 8:38 pm
Tags: Game, of, Thrones, BluRay, x264, ESubs
Users rating: ---, not rated. please login to rate.

Download Game of Thrones Season 2 Complete 720p BluRay With ESubs - ExtraMovies torrent



Torrent Description


Movie Info

General
Unique ID : 235431884390991169067636306093709377717 (0xB11E8817045DAB8DB9AFA4C0D1C2C0B5)
Complete name : Game of Thrones Season 2 Complete 720p BluRay With ESubs - ExtraMovies
Format : Matroska
Format version : Version 4 / Version 2
File size : 484 MiB
Duration : 1 h 1 min
Overall bit rate : 1 097 kb/s
Movie name : ExtraMovies.cc - Game of Thrones Season 2 Complete 720p BluRay With ESubs
Encoded date : UTC 2017-11-10 03:13:37
Writing application : mkvmerge v17.0.0 ('Be Ur Friend') 64-bit
Writing library : libebml v1.3.5 + libmatroska v1.4.8

Video
ID : 1
Format : AVC
Format/Info : Advanced Video Codec
Format profile :
Format settings : CABAC / 8 Ref Frames
Format settings, CABAC : Yes
Format settings, RefFrames : 8 frames
Codec ID : V_MPEG4/ISO/AVC
Duration : 1 h 1 min
Bit rate : 999 kb/s
Width : 1 280 pixels
Height : 544 pixels
Display aspect ratio : 2.35:1
Frame rate mode : Constant
Frame rate : 23.976 (23976/1000) FPS
Color space : YUV
Chroma subsampling : 4:2:0
Bit depth : 8 bits
Scan type : Progressive
Bits/(Pixel*Frame) : 0.060
Stream size : 440 MiB (91%)
Title : ExtraMovies.cc
Writing library : x264 core 142 r2479 dd79a61
Encoding settings : cabac=1 / ref=8 / deblock=1:0:0 / analyse=0x3:0x113 / me=umh / subme=9 / psy=1 / psy_rd=1.00:0.00 / mixed_ref=1 / me_range=16 / chroma_me=1 / trellis=2 / 8x8dct=1 / cqm=0 / deadzone=21,11 / fast_pskip=1 / chroma_qp_offset=-2 / threads=12 / lookahead_threads=1 / sliced_threads=0 / nr=0 / decimate=1 / interlaced=0 / bluray_compat=0 / constrained_intra=0 / bframes=3 / b_pyramid=2 / b_adapt=2 / b_bias=0 / direct=3 / weightb=1 / open_gop=0 / weightp=2 / keyint=240 / keyint_min=24 / scenecut=40 / intra_refresh=0 / rc_lookahead=40 / rc=2pass / mbtree=1 / bitrate=999 / ratetol=1.0 / qcomp=0.60 / qpmin=0 / qpmax=69 / qpstep=4 / cplxblur=20.0 / qblur=0.5 / vbv_maxrate=62500 / vbv_bufsize=78125 / nal_hrd=none / filler=0 / ip_ratio=1.40 / aq=1:1.00
Default : Yes
Forced : No
Color range : Limited
Color primaries : BT.709
Transfer characteristics : BT.709
Matrix coefficients : BT.709

Audio
ID : 2
Format : AAC
Format/Info : Advanced Audio Codec
Format profile : HE-AAC / LC
Format settings : NBC
Codec ID : A_AAC-5
Duration : 1 h 1 min
Bit rate : 96.0 kb/s
Channel(s) : 6 channels
Channel positions : Front: L C R, Side: L R, LFE
Sampling rate : 48.0 kHz / 24.0 kHz
Frame rate : 23.438 FPS (1024 SPF)
Compression mode : Lossy
Delay relative to video : -105 ms
Stream size : 42.3 MiB (9%)
Title : ExtraMovies.cc
Language : English
Default : Yes
Forced : No

Text
ID : 3
Format : UTF-8
Codec ID : S_TEXT/UTF8
Codec ID/Info : UTF-8 Plain Text
Duration : 1 h 0 min
Bit rate : 42 b/s
Count of elements : 641
Stream size : 18.8 KiB (0%)
Title : ExtraMovies.cc
Language : English
Default : Yes
Forced : No












Download Game of Thrones Season 2 Complete 720p BluRay With ESubs - ExtraMovies torrent


Related Torrents


Comments   (please login to add your comment!)

deus ex the fall     swallowed 17 07 02     petite     slim brunette monica brown     paying     kabir     2015 720p hindi     magix video deluxe     gvg     starr jessica     true blood s05e01     iron man dolby     1080p dual audio     rita rush     hindi 1080p     like it black     the game plan     pink floyd the wall     seven deadly sins mp4     the waking dead     xmas orgy     empire boardwalk s01     white collar ita     hindi     


Home - Browse Torrents

Made with love by an Extratorrent Fan!