extratorrent - A Fan Made Alternative Login   |   Register
Important Information
Registrations are open now
-------------------------------------

Please click here to register with Extratorrent2 to recieve latest updates, add bookmarks and to post comments.

Friends
Friends

1) ProxyFix

Extratorrent2 > Categories > TV > 13 Reasons Why (2017) Season 02 S02 (1080p WEBRip x265 HEVC 10bit AAC 5.1 Joy) [UTR] torrent


Browse TV torrents

13 Reasons Why (2017) Season 02 S02 (1080p WEBRip x265 HEVC 10bit AAC 5.1 Joy) [UTR] torrent


Download torrent: Download 13 Reasons Why (2017) Season 02 S02 (1080p WEBRip x265 HEVC 10bit AAC 5.1 Joy) [UTR] torrent Magnet link Bookmark Torrent: 13 Reasons Why (2017) Season 02 S02 (1080p WEBRip x265 HEVC 10bit AAC 5.1 Joy) [UTR]   13 Reasons Why (2017) Season 02 S02 (1080p WEBRip x265 HEVC 10bit AAC 5.1 Joy) [UTR] torrent
Info hash: A23785CC6C85283A2F71805F47662001D76BA4CE
Category: Categories > TV
Trackers:
View all torrent trackers >
Health:
 seeds: 13 ,  leechers: 15 |  Update >
Torrent language: English English
Total Size: 7.7 GB
Files List:
17    View torrent files >
Uploader:
UTRCorp
Torrent added: June 28, 2018, 8:33 pm
Tags: utr, joybell
Users rating: ---, not rated. please login to rate.

Download 13 Reasons Why (2017) Season 02 S02 (1080p WEBRip x265 HEVC 10bit AAC 5.1 Joy) [UTR] torrent



Torrent Description








Media Information

Media Information

Code:

General
Format : Matroska
Format version : Version 4 / Version 2
File size : 606 MiB
Duration : 59 min 40 s
Overall bit rate : 1 421 kb/s
Encoded date : UTC 2018-06-01 03:51:05
Writing application : mkvmerge v20.0.0 ('I Am The Sun') 64-bit
Writing library : libebml v1.3.5 + libmatroska v1.4.8
Writing frontend : StaxRip v1.7.0.6

Video
ID : 1
Format : HEVC
Format/Info : High Efficiency Video Coding
Format profile : Main
Codec ID : V_MPEGH/ISO/HEVC
Duration : 59 min 39 s
Bit rate : 1 200 kb/s
Width : 1 920 pixels
Height : 960 pixels
Display aspect ratio : 2.000
Frame rate mode : Constant
Frame rate : 23.976 (24000/1001) FPS
Color space : YUV
Chroma subsampling : 4:2:0
Bit depth : 10 bits
Bits/(Pixel*Frame) : 0.027
Stream size : 512 MiB (84%)
Writing library : x265 2.7+2-22c127ff05d5:[Windows][MSVC 1900][64 bit] 10bit
Encoding settings : cpuid=1173503 / frame-threads=3 / numa-pools=8 / wpp / no-pmode / no-pme / no-psnr / ssim / log-level=2 / input-csp=1 / input-res=1920x960 / interlace=0 / total-frames=85833 / level-idc=0 / high-tier=1 / uhd-bd=0 / ref=4 / no-allow-non-conformance / no-repeat-headers / annexb / no-aud / no-hrd / info / hash=0 / no-temporal-layers / open-gop / min-keyint=23 / keyint=250 / gop-lookahead=0 / bframes=4 / b-adapt=2 / b-pyramid / bframe-bias=0 / rc-lookahead=25 / lookahead-slices=4 / scenecut=40 / radl=0 / no-intra-refresh / ctu=64 / min-cu-size=8 / rect / no-amp / max-tu-size=32 / tu-inter-depth=1 / tu-intra-depth=1 / limit-tu=0 / rdoq-level=2 / dynamic-rd=0.00 / ssim-rd / signhide / no-tskip / nr-intra=0 / nr-inter=0 / no-constrained-intra / strong-intra-smoothing / max-merge=3 / limit-refs=3 / limit-modes / me=3 / subme=3 / merange=57 / temporal-mvp / weightp / weightb / no-analyze-src-pics / deblock=0:0 / sao / sao-non-deblock / rd=6 / no-early-skip / rskip / no-fast-intra / no-tskip-fast / no-cu-lossless / b-intra / no-splitrd-skip / rdpenalty=0 / psy-rd=5.00 / psy-rdoq=1.55 / no-rd-refine / no-lossless / cbqpoffs=0 / crqpoffs=0 / rc=abr / bitrate=1200 / qcomp=0.60 / qpstep=4 / stats-write=0 / stats-read=2 / cplxblur=20.0 / qblur=0.5 / ipratio=1.40 / pbratio=1.30 / aq-mode=3 / aq-strength=1.00 / cutree / zone-count=0 / no-strict-cbr / qg-size=32 / no-rc-grain / qpmax=69 / qpmin=0 / no-const-vbv / sar=0 / overscan=0 / videoformat=5 / range=0 / colorprim=2 / transfer=2 / colormatrix=2 / chromaloc=0 / display-window=0 / max-cll=0,0 / min-luma=0 / max-luma=1023 / log2-max-poc-lsb=8 / vui-timing-info / vui-hrd-info / slices=1 / no-opt-qp-pps / no-opt-ref-list-length-pps / multi-pass-opt-rps / scenecut-bias=0.05 / no-opt-cu-delta-qp / no-aq-motion / no-hdr / no-hdr-opt / no-dhdr10-opt / analysis-reuse-level=5 / scale-factor=0 / refine-intra=0 / refine-inter=0 / refine-mv=0 / limit-sao / ctu-info=0 / no-lowpass-dct / refine-mv-type=0 / copy-pic=1
Default : Yes
Forced : No

Audio
ID : 2
Format : AAC
Format/Info : Advanced Audio Codec
Format profile : HE-AAC / LC
Codec ID : A_AAC
Duration : 59 min 40 s
Bit rate : 215 kb/s
Channel(s) : 6 channels
Channel positions : Front: L C R, Side: L R, LFE
Sampling rate : 48.0 kHz / 24.0 kHz
Frame rate : 23.438 FPS (1024 spf)
Compression mode : Lossy
Delay relative to video : 31 ms
Stream size : 91.8 MiB (15%)
Language : English
Default : Yes
Forced : No

Subtitle #1
ID : 3
Format : UTF-8
Codec ID : S_TEXT/UTF8
Codec ID/Info : UTF-8 Plain Text
Duration : 58 min 44 s
Bit rate : 71 b/s
Count of elements : 829
Stream size : 30.9 KiB (0%)
Language : English
Default : No
Forced : No

Subtitle #2
ID : 4
Format : UTF-8
Codec ID : S_TEXT/UTF8
Codec ID/Info : UTF-8 Plain Text
Duration : 58 min 44 s
Bit rate : 77 b/s
Count of elements : 871
Stream size : 33.5 KiB (0%)
Language : English
Default : No
Forced : No

Subtitle #3
ID : 5
Format : UTF-8
Codec ID : S_TEXT/UTF8
Codec ID/Info : UTF-8 Plain Text
Duration : 56 min 26 s
Bit rate : 121 b/s
Count of elements : 824
Stream size : 50.3 KiB (0%)
Language : Arabic
Default : No
Forced : No

Subtitle #4
ID : 6
Format : UTF-8
Codec ID : S_TEXT/UTF8
Codec ID/Info : UTF-8 Plain Text
Duration : 56 min 27 s
Bit rate : 70 b/s
Count of elements : 733
Stream size : 29.1 KiB (0%)
Language : Danish
Default : No
Forced : No

Subtitle #5
ID : 7
Format : UTF-8
Codec ID : S_TEXT/UTF8
Codec ID/Info : UTF-8 Plain Text
Duration : 56 min 27 s
Bit rate : 71 b/s
Count of elements : 782
Stream size : 29.6 KiB (0%)
Language : German
Default : No
Forced : No

Subtitle #6
ID : 8
Format : UTF-8
Codec ID : S_TEXT/UTF8
Codec ID/Info : UTF-8 Plain Text
Duration : 56 min 27 s
Bit rate : 115 b/s
Count of elements : 859
Stream size : 47.8 KiB (0%)
Language : Greek
Default : No
Forced : No

Subtitle #7
ID : 9
Format : UTF-8
Codec ID : S_TEXT/UTF8
Codec ID/Info : UTF-8 Plain Text
Duration : 56 min 27 s
Bit rate : 74 b/s
Count of elements : 802
Stream size : 30.9 KiB (0%)
Language : Spanish
Default : No
Forced : No

Subtitle #8
ID : 10
Format : UTF-8
Codec ID : S_TEXT/UTF8
Codec ID/Info : UTF-8 Plain Text
Duration : 56 min 26 s
Bit rate : 65 b/s
Count of elements : 800
Stream size : 27.1 KiB (0%)
Language : Spanish
Default : No
Forced : No

Subtitle #9
ID : 11
Format : UTF-8
Codec ID : S_TEXT/UTF8
Codec ID/Info : UTF-8 Plain Text
Duration : 56 min 26 s
Bit rate : 61 b/s
Count of elements : 728
Stream size : 25.4 KiB (0%)
Language : Finnish
Default : No
Forced : No

Subtitle #10
ID : 12
Format : UTF-8
Codec ID : S_TEXT/UTF8
Codec ID/Info : UTF-8 Plain Text
Duration : 56 min 26 s
Bit rate : 73 b/s
Count of elements : 759
Stream size : 30.3 KiB (0%)
Language : French
Default : No
Forced : No

Subtitle #11
ID : 13
Format : UTF-8
Codec ID : S_TEXT/UTF8
Codec ID/Info : UTF-8 Plain Text
Duration : 56 min 26 s
Bit rate : 106 b/s
Count of elements : 804
Stream size : 44.1 KiB (0%)
Language : Hebrew
Default : No
Forced : No

Subtitle #12
ID : 14
Format : UTF-8
Codec ID : S_TEXT/UTF8
Codec ID/Info : UTF-8 Plain Text
Duration : 56 min 27 s
Bit rate : 71 b/s
Count of elements : 749
Stream size : 29.6 KiB (0%)
Language : Italian
Default : No
Forced : No

Subtitle #13
ID : 15
Format : UTF-8
Codec ID : S_TEXT/UTF8
Codec ID/Info : UTF-8 Plain Text
Duration : 56 min 27 s
Bit rate : 58 b/s
Count of elements : 829
Stream size : 24.4 KiB (0%)
Language : Japanese
Default : No
Forced : No

Subtitle #14
ID : 16
Format : UTF-8
Codec ID : S_TEXT/UTF8
Codec ID/Info : UTF-8 Plain Text
Duration : 56 min 26 s
Bit rate : 81 b/s
Count of elements : 809
Stream size : 33.6 KiB (0%)
Language : Korean
Default : No
Forced : No

Subtitle #15
ID : 17
Format : UTF-8
Codec ID : S_TEXT/UTF8
Codec ID/Info : UTF-8 Plain Text
Duration : 56 min 27 s
Bit rate : 67 b/s
Count of elements : 774
Stream size : 28.0 KiB (0%)
Language : Norwegian Bokmal
Default : No
Forced : No

Subtitle #16
ID : 18
Format : UTF-8
Codec ID : S_TEXT/UTF8
Codec ID/Info : UTF-8 Plain Text
Duration : 56 min 27 s
Bit rate : 56 b/s
Count of elements : 617
Stream size : 23.4 KiB (0%)
Language : Dutch
Default : No
Forced : No

Subtitle #17
ID : 19
Format : UTF-8
Codec ID : S_TEXT/UTF8
Codec ID/Info : UTF-8 Plain Text
Duration : 56 min 27 s
Bit rate : 61 b/s
Count of elements : 712
Stream size : 25.5 KiB (0%)
Language : Polish
Default : No
Forced : No

Subtitle #18
ID : 20
Format : UTF-8
Codec ID : S_TEXT/UTF8
Codec ID/Info : UTF-8 Plain Text
Duration : 56 min 27 s
Bit rate : 72 b/s
Count of elements : 747
Stream size : 29.8 KiB (0%)
Language : Portuguese
Default : No
Forced : No

Subtitle #19
ID : 21
Format : UTF-8
Codec ID : S_TEXT/UTF8
Codec ID/Info : UTF-8 Plain Text
Duration : 56 min 26 s
Bit rate : 71 b/s
Count of elements : 786
Stream size : 29.6 KiB (0%)
Language : Portuguese
Default : No
Forced : No

Subtitle #20
ID : 22
Format : UTF-8
Codec ID : S_TEXT/UTF8
Codec ID/Info : UTF-8 Plain Text
Duration : 56 min 27 s
Bit rate : 77 b/s
Count of elements : 802
Stream size : 32.1 KiB (0%)
Language : Romanian
Default : No
Forced : No

Subtitle #21
ID : 23
Format : UTF-8
Codec ID : S_TEXT/UTF8
Codec ID/Info : UTF-8 Plain Text
Duration : 56 min 26 s
Bit rate : 67 b/s
Count of elements : 717
Stream size : 27.9 KiB (0%)
Language : Swedish
Default : No
Forced : No

Subtitle #22
ID : 24
Format : UTF-8
Codec ID : S_TEXT/UTF8
Codec ID/Info : UTF-8 Plain Text
Duration : 56 min 26 s
Bit rate : 173 b/s
Count of elements : 843
Stream size : 71.7 KiB (0%)
Language : Thai
Default : No
Forced : No

Subtitle #23
ID : 25
Format : UTF-8
Codec ID : S_TEXT/UTF8
Codec ID/Info : UTF-8 Plain Text
Duration : 56 min 26 s
Bit rate : 72 b/s
Count of elements : 801
Stream size : 30.1 KiB (0%)
Language : Turkish
Default : No
Forced : No

Subtitle #24
ID : 26
Format : UTF-8
Codec ID : S_TEXT/UTF8
Codec ID/Info : UTF-8 Plain Text
Duration : 56 min 26 s
Bit rate : 70 b/s
Count of elements : 802
Stream size : 29.0 KiB (0%)
Language : Chinese
Default : No
Forced : No

Subtitle #25
ID : 27
Format : UTF-8
Codec ID : S_TEXT/UTF8
Codec ID/Info : UTF-8 Plain Text
Duration : 56 min 26 s
Bit rate : 68 b/s
Count of elements : 801
Stream size : 28.5 KiB (0%)
Language : Chinese
Default : No
Forced : No



Source Information

Code:

Release:
13.Reasons.Why.S02E01.The.First.Polaroid.2160p.NF.WEBRip.DD5.1.x264-NTb.mkv (19.90 GBs)



Download 13 Reasons Why (2017) Season 02 S02 (1080p WEBRip x265 HEVC 10bit AAC 5.1 Joy) [UTR] torrent


Related Torrents


Comments   (please login to add your comment!)

storm     big cock xxx     horny girls     boobday alba     the king of the     inc     haley cummings bigtitsroundasses     casey calvert     guns n     oil and ass     blade the immortal     teen in pigtails gets     eden lake x265     x art i love     portable coreldraw     jennifer ashton     english 2016     a torrent     ebod 580     47 ronin 2013 1080p     deepwater ita     cheliyaa 2017     german girl     is back to     


Home - Browse Torrents

Made with love by an Extratorrent Fan!