extratorrent - A Fan Made Alternative Login   |   Register
Important Information
Registrations are open now
-------------------------------------

Please click here to register with Extratorrent2 to recieve latest updates, add bookmarks and to post comments.

Friends
Friends

1) Filebebo
-------------------------------------
2) MoviesDig
-------------------------------------
3) Torrentz2.cc
-------------------------------------
4) Torrents.me

Extratorrent2 > Categories > TV > The Big Bang Theory S11E23 (1080p WEBRip x265 HEVC 10bit AAC 5.1 Joy) [UTR] torrent


Browse TV torrents

The Big Bang Theory S11E23 (1080p WEBRip x265 HEVC 10bit AAC 5.1 Joy) [UTR] torrent


Download torrent: Download The Big Bang Theory S11E23 (1080p WEBRip x265 HEVC 10bit AAC 5.1 Joy) [UTR] torrent Magnet link Bookmark Torrent: The Big Bang Theory S11E23 (1080p WEBRip x265 HEVC 10bit AAC 5.1 Joy) [UTR]   The Big Bang Theory S11E23 (1080p WEBRip x265 HEVC 10bit AAC 5.1 Joy) [UTR] torrent
Info hash: B7DF39993865FF16B097CBBCAEE4F32ED1804626
Category: Categories > TV
Trackers:
View all torrent trackers >
Health:
 seeds: 12 ,  leechers: 2 |  Update >
Torrent language: English English
Total Size: 148.6 MB
Files List:
1    View torrent files >
Uploader:
UTRCorp
Torrent added: May 8, 2018, 9:33 pm
Tags: utr, joybell
Users rating: ---, not rated. please login to rate.

Download The Big Bang Theory S11E23 (1080p WEBRip x265 HEVC 10bit AAC 5.1 Joy) [UTR] torrent



Torrent Description








Media Information

Media Information

Code:

General
Format : Matroska
Format version : Version 4 / Version 2
File size : 149 MiB
Duration : 20 min 12 s
Overall bit rate : 1 028 kb/s
Encoded date : UTC 2018-05-05 23:05:37
Writing application : mkvmerge v16.0.0 ('Protest') 64-bit
Writing library : libebml v1.3.5 + libmatroska v1.4.8
Writing frontend : StaxRip v1.7.0.3

Video
ID : 1
Format : HEVC
Format/Info : High Efficiency Video Coding
Format profile : Main @Main
Codec ID : V_MPEGH/ISO/HEVC
Duration : 20 min 12 s
Bit rate : 900 kb/s
Width : 1 920 pixels
Height : 1 080 pixels
Display aspect ratio : 16:9
Frame rate mode : Constant
Frame rate : 23.976 (24000/1001) FPS
Color space : YUV
Chroma subsampling : 4:2:0
Bit depth : 10 bits
Bits/(Pixel*Frame) : 0.018
Stream size : 130 MiB (88%)
Writing library : x265 2.7+2-22c127ff05d5:[Windows][MSVC 1900][64 bit] 10bit
Encoding settings : cpuid=1173503 / frame-threads=3 / numa-pools=8 / wpp / no-pmode / no-pme / no-psnr / ssim / log-level=2 / input-csp=1 / input-res=1920x1080 / interlace=0 / total-frames=29082 / level-idc=0 / high-tier=1 / uhd-bd=0 / ref=4 / no-allow-non-conformance / no-repeat-headers / annexb / no-aud / no-hrd / info / hash=0 / no-temporal-layers / open-gop / min-keyint=23 / keyint=250 / gop-lookahead=0 / bframes=4 / b-adapt=2 / b-pyramid / bframe-bias=0 / rc-lookahead=25 / lookahead-slices=4 / scenecut=40 / radl=0 / no-intra-refresh / ctu=64 / min-cu-size=8 / rect / no-amp / max-tu-size=32 / tu-inter-depth=1 / tu-intra-depth=1 / limit-tu=0 / rdoq-level=2 / dynamic-rd=0.00 / ssim-rd / signhide / no-tskip / nr-intra=0 / nr-inter=0 / no-constrained-intra / strong-intra-smoothing / max-merge=3 / limit-refs=3 / limit-modes / me=3 / subme=3 / merange=57 / temporal-mvp / weightp / weightb / no-analyze-src-pics / deblock=0:0 / sao / sao-non-deblock / rd=6 / no-early-skip / rskip / no-fast-intra / no-tskip-fast / no-cu-lossless / b-intra / no-splitrd-skip / rdpenalty=0 / psy-rd=3.60 / psy-rdoq=1.05 / no-rd-refine / no-lossless / cbqpoffs=0 / crqpoffs=0 / rc=abr / bitrate=900 / qcomp=0.60 / qpstep=4 / stats-write=0 / stats-read=2 / cplxblur=20.0 / qblur=0.5 / ipratio=1.40 / pbratio=1.30 / aq-mode=3 / aq-strength=1.00 / cutree / zone-count=0 / no-strict-cbr / qg-size=32 / no-rc-grain / qpmax=69 / qpmin=0 / no-const-vbv / sar=0 / overscan=0 / videoformat=5 / range=0 / colorprim=2 / transfer=2 / colormatrix=2 / chromaloc=0 / display-window=0 / max-cll=0,0 / min-luma=0 / max-luma=1023 / log2-max-poc-lsb=8 / vui-timing-info / vui-hrd-info / slices=1 / no-opt-qp-pps / no-opt-ref-list-length-pps / multi-pass-opt-rps / scenecut-bias=0.05 / no-opt-cu-delta-qp / no-aq-motion / no-hdr / no-hdr-opt / no-dhdr10-opt / analysis-reuse-level=5 / scale-factor=0 / refine-intra=0 / refine-inter=0 / refine-mv=0 / limit-sao / ctu-info=0 / no-lowpass-dct / refine-mv-type=0 / copy-pic=1
Default : Yes
Forced : No

Audio
ID : 2
Format : AAC
Format/Info : Advanced Audio Codec
Format profile : HE-AACv2 / HE-AAC / LC
Codec ID : A_AAC
Duration : 20 min 12 s
Bit rate : 125 kb/s
Channel(s) : 6 channels
Channel(s)_Original : 2 channels / 10 channels / 10 channels
Channel positions : Front: L R / Front: 5, Side: L C R, LFE= 2 / Front: 5, Side: L C R, LFE= 2
Sampling rate : 48.0 kHz / 48.0 kHz / 24.0 kHz
Frame rate : 23.438 FPS (1024 spf)
Compression mode : Lossy
Delay relative to video : 31 ms
Stream size : 18.1 MiB (12%)
Language : English
Default : Yes
Forced : No

Subtitle
ID : 3
Format : UTF-8
Codec ID : S_TEXT/UTF8
Codec ID/Info : UTF-8 Plain Text
Duration : 19 min 49 s
Bit rate : 97 b/s
Count of elements : 456
Stream size : 14.1 KiB (0%)
Language : English
Default : No
Forced : No



Source Information

Code:

Release:
The.Big.Bang.Theory.S11E23.The.Sibling.Realignment.1080p.AMZN.WEB-DL.DDP5.1.H.264-NTb.mkv (1.41 GBs)



Download The Big Bang Theory S11E23 (1080p WEBRip x265 HEVC 10bit AAC 5.1 Joy) [UTR] torrent


Related Torrents


Comments   (please login to add your comment!)

deep anal action scene 2     driving mrs madison wild     milf dreams julia ann     dripping tushy     sonu ke titu ki sweety 2018     padman     jindua     the kooks     dubbed     family dvd     hindi     blackshemalehardcore mya     puretaboo x265     uma zex     sivalinga 2017     hardcore     shanti     gg104     ts 2017     jesse jane nikki benz     max payne     xxx     chasing life s02e09     katamarayudu 2017     


Home - Browse Torrents

Made with love by an Extratorrent Fan!