extratorrent - A Fan Made Alternative Login   |   Register
Important Information
Registrations are open now
-------------------------------------

Please click here to register with Extratorrent2 to recieve latest updates, add bookmarks and to post comments.

Friends
Friends

1) ProxyFix

Extratorrent2 > Categories > Movies > Spyder (2017) 720p Uncut HDRip [Dual Audio]- [Hindi (Original) + Telugu] 1.5GB- MRbuZ torrent


Browse Movies torrents

Spyder (2017) 720p Uncut HDRip [Dual Audio]- [Hindi (Original) + Telugu] 1.5GB- MRbuZ torrent


Spyder (2017)
Name: Spyder
Released Year: 2017
Runtime: 155 mins
Gener: Action, Crime, Thriller
Director: A.R. Murugadoss
Country: India
IMDB Rating: 7.4/10
Plot: Intelligence officer Shiva must use his skills and intellect to take down a psychotic wrecking havoc in Hyderabad.

Download torrent: Download Spyder (2017) 720p Uncut HDRip [Dual Audio]- [Hindi (Original) + Telugu] 1.5GB- MRbuZ torrent Magnet link Bookmark Torrent: Spyder (2017) 720p Uncut HDRip [Dual Audio]- [Hindi (Original) + Telugu] 1.5GB- MRbuZ   Spyder (2017) 720p Uncut HDRip [Dual Audio]- [Hindi (Original) + Telugu] 1.5GB- MRbuZ torrent
Info hash: 7F15A8F1F1E299EC9C092EF1821A192A79ECD72B
Category: Categories > Movies
Trackers:
View all torrent trackers >
Health:
 seeds: 3 ,  leechers: 6 |  Update >
Torrent language: Hindi Hindi
Total Size: 1.5 GB
Files List:
3    View torrent files >
Uploader:
ictv
Torrent added: May 13, 2018, 3:30 pm
Tags: "Action", "Sci-Fi", "Thriller"
IMDB: http://www.imdb.com/title/tt6522546
Users rating: ---, not rated. please login to rate.

Download Spyder (2017) 720p Uncut HDRip [Dual Audio]- [Hindi (Original) + Telugu] 1.5GB- MRbuZ torrent



Torrent Description

Visit Our Site  www.mrbuz.com

Spyder (2017) 720p Uncut HDRip [Dual Audio]- [Hindi (Original) + Telugu] 1.5GB- MRbuZ

http://www.imdb.com/title/tt6522546/



General
Unique ID                   : 46009238273165396570028322403866427303 (0x229D0E95A4A728712B6F074846CCBFA7)
Complete name               : [www.MRbuZ.com] Spyder (2017) 720p Uncut HDRip [Dual Audio]- [Hindi (Original) + Telugu] 1.5GB- MRbuZ\www.MRbuZ.com - Spyder (2017) 720p Uncut HDRip [Dual Audio]- [Hindi (Original) + Telugu] - MRbuZ.mkv
Format                      : Matroska
Format version              : Version 4 / Version 2
File size                   : 1.51 GiB
Duration                    : 2 h 16 min
Overall bit rate mode       : Variable
Overall bit rate            : 1 583 kb/s
Movie name                  : www.MRbuZ.com
Encoded date                : UTC 2018-05-12 11:52:26
Writing application         : mkvmerge v22.0.0 ('At The End Of The World') 64-bit
Writing library             : libebml v1.3.5 + libmatroska v1.4.8

Video
ID                          : 1
Format                      : AVC
Format/Info                 : Advanced Video Codec
Format profile              :
Format settings, CABAC      : Yes
Format settings, ReFrames   : 4 frames
Codec ID                    : V_MPEG4/ISO/AVC
Duration                    : 2 h 16 min
Bit rate                    : 1 358 kb/s
Width                       : 1 280 pixels
Height                      : 544 pixels
Display aspect ratio        : 2.35:1
Frame rate mode             : Constant
Frame rate                  : 29.970 (30000/1001) FPS
Color space                 : YUV
Chroma subsampling          : 4:2:0
Bit depth                   : 8 bits
Scan type                   : Progressive
Bits/(Pixel*Frame)          : 0.065
Stream size                 : 1.30 GiB (86%)
Title                       : www.MRbuZ.com
Writing library             : x264 core 148 r2744 b97ae06
Encoding settings           : cabac=1 / ref=3 / deblock=1:0:0 / analyse=0x3:0x113 / me=hex / subme=7 / psy=1 / psy_rd=1.00:0.00 / mixed_ref=1 / me_range=16 / chroma_me=1 / trellis=1 / 8x8dct=1 / cqm=0 / deadzone=21,11 / fast_pskip=1 / chroma_qp_offset=-2 / threads=17 / lookahead_threads=2 / sliced_threads=0 / nr=0 / decimate=1 / interlaced=0 / bluray_compat=0 / constrained_intra=0 / bframes=3 / b_pyramid=2 / b_adapt=1 / b_bias=0 / direct=1 / weightb=1 / open_gop=0 / weightp=2 / keyint=300 / keyint_min=29 / scenecut=40 / intra_refresh=0 / rc_lookahead=40 / rc=2pass / mbtree=1 / bitrate=1358 / ratetol=1.0 / qcomp=0.60 / qpmin=0 / qpmax=69 / qpstep=4 / cplxblur=20.0 / qblur=0.5 / ip_ratio=1.40 / aq=1:1.00
Language                    : Telugu
Default                     : Yes
Forced                      : No

Audio #1
ID                          : 2
Format                      : MPEG Audio
Format version              : Version 1
Format profile              : Layer 3
Mode                        : Joint stereo
Mode extension              : MS Stereo
Codec ID                    : A_MPEG/L3
Codec ID/Hint               : MP3
Duration                    : 2 h 16 min
Bit rate mode               : Variable
Bit rate                    : 96.0 kb/s
Channel(s)                  : 2 channels
Sampling rate               : 48.0 kHz
Frame rate                  : 41.667 FPS (1152 spf)
Compression mode            : Lossy
Stream size                 : 92.1 MiB (6%)
Title                       : www.MRbuZ.com
Writing library             : LAME3.99r
Encoding settings           : -m j -V 4 -q 3 -lowpass 15.1 --abr 96
Language                    : Hindi
Default                     : Yes
Forced                      : No

Audio #2
ID                          : 3
Format                      : MPEG Audio
Format version              : Version 1
Format profile              : Layer 3
Mode                        : Joint stereo
Mode extension              : MS Stereo
Codec ID                    : A_MPEG/L3
Codec ID/Hint               : MP3
Duration                    : 2 h 16 min
Bit rate mode               : Constant
Bit rate                    : 128 kb/s
Channel(s)                  : 2 channels
Sampling rate               : 48.0 kHz
Frame rate                  : 41.667 FPS (1152 spf)
Compression mode            : Lossy
Stream size                 : 125 MiB (8%)
Title                       : www.MRbuZ.com
Writing library             : LAME3.99.5
Language                    : Telugu
Default                     : No
Forced                      : No





Download Spyder (2017) 720p Uncut HDRip [Dual Audio]- [Hindi (Original) + Telugu] 1.5GB- MRbuZ torrent


Related Torrents


Comments   (please login to add your comment!)


Home - Browse Torrents

Made with love by an Extratorrent Fan!