extratorrent - A Fan Made Alternative Login   |   Register
Important Information
Registrations are open now
-------------------------------------

Please click here to register with Extratorrent2 to recieve latest updates, add bookmarks and to post comments.

Friends
Friends

1) ProxyFix

Extratorrent2 > Categories > TV > The Big Bang Theory S11E24 The Bow Tie Ssymmetry 1080p 5.1 - 2.0 x264 Phun Psyz torrent


Browse TV torrents

The Big Bang Theory S11E24 The Bow Tie Ssymmetry 1080p 5.1 - 2.0 x264 Phun Psyz torrent


Download torrent: Download The Big Bang Theory S11E24 The Bow Tie Ssymmetry 1080p 5.1 - 2.0 x264 Phun Psyz torrent Magnet link Bookmark Torrent: The Big Bang Theory S11E24 The Bow Tie Ssymmetry 1080p 5.1 - 2.0 x264 Phun Psyz   The Big Bang Theory S11E24 The Bow Tie Ssymmetry 1080p 5.1 - 2.0 x264 Phun Psyz torrent
Info hash: AC65C976AB4823CD0A1F2A51B647A2A6F16F48AB
Category: Categories > TV
Trackers:
View all torrent trackers >
Health:
 seeds: 26 ,  leechers: 5 |  Update >
Torrent language: English English
Total Size: 299.3 MB
Files List:
1    View torrent files >
Uploader:
PhunPsyz
Torrent added: May 11, 2018, 9:33 pm
Tags: Big, Bang, Theory, S11E24, 1080p, x264, Phun, Psyz
IMDB: http://www.imdb.com/title/tt6674456
Users rating: ---, not rated. please login to rate.

Download The Big Bang Theory S11E24 The Bow Tie Ssymmetry 1080p 5.1 - 2.0 x264 Phun Psyz torrent



Torrent Description

www.imdb.com/title/tt6674456/?ref_=ttep_ep24

When Amy's parents and Sheldon's family arrive, everybody is focused to make sure all goes according to plan—everyone except the bride and groom.

Source: NTb (Amzn) (1.55 GiB)



Format : MPEG-4
Format profile : Base Media / Version 2
Codec ID : mp42 (isom/iso2/avc1/mp41)
File size : 299 MiB
Duration : 21 min 43 s
Overall bit rate mode : Variable
Overall bit rate : 1 927 kb/s

Video
ID : 1
Format : AVC
Format/Info : Advanced Video Codec
Format profile :
Format settings : CABAC / 8 Ref Frames
Format settings, CABAC : Yes
Format settings, RefFrames : 8 frames
Codec ID : avc1
Codec ID/Info : Advanced Video Coding
Duration : 21 min 43 s
Bit rate : 1 440 kb/s
Width : 1 920 pixels
Height : 1 080 pixels
Display aspect ratio : 16:9
Frame rate mode : Variable
Frame rate : 23.976 (24000/1001) FPS
Minimum frame rate : 23.974 FPS
Maximum frame rate : 23.981 FPS
Color space : YUV
Chroma subsampling : 4:2:0
Bit depth : 8 bits
Scan type : Progressive
Bits/(Pixel*Frame) : 0.029
Stream size : 224 MiB (75%)
Writing library : x264 core 148 r2708 86b7198

Audio #1
ID : 2
Format : AC-3
Format/Info : Audio Coding 3
Format settings, Endianness : Big
Codec ID : ac-3
Duration : 21 min 43 s
Bit rate mode : Constant
Bit rate : 320 kb/s
Channel(s) : 6 channels
Channel positions : Front: L C R, Side: L R, LFE
Sampling rate : 48.0 kHz
Frame rate : 31.250 FPS (1536 SPF)
Bit depth : 16 bits
Compression mode : Lossy
Stream size : 49.7 MiB (17%)
Title : Surround / Surround
Language : English

Audio #2
ID : 3
Format : AAC
Format/Info : Advanced Audio Codec
Format profile : LC
Codec ID : mp4a-40-2
Duration : 21 min 43 s
Bit rate mode : Variable
Bit rate : 159 kb/s
Channel(s) : 2 channels
Channel positions : Front: L R
Sampling rate : 48.0 kHz
Frame rate : 46.875 FPS (1024 SPF)
Compression mode : Lossy
Stream size : 24.7 MiB (8%)
Title : Stereo / Stereo
Language : English

Text
Language : English
Default : Yes
Forced : No


Download The Big Bang Theory S11E24 The Bow Tie Ssymmetry 1080p 5.1 - 2.0 x264 Phun Psyz torrent


Related Torrents


Comments   (please login to add your comment!)


Home - Browse Torrents

Made with love by an Extratorrent Fan!