extratorrent - A Fan Made Alternative Login   |   Register
Important Information
Registrations are open now
-------------------------------------

Please click here to register with Extratorrent2 to recieve latest updates, add bookmarks and to post comments.

Friends
Friends

1) ProxyFix

Extratorrent2 > Categories > Movies > Kong Skull Island (2017) 1080p BluRay Hindi DD 5.1Ch - Eng DTS 5.1Ch ~ MANN KT torrent


Browse Movies torrents

Kong Skull Island (2017) 1080p BluRay Hindi DD 5.1Ch - Eng DTS 5.1Ch ~ MANN KT torrent


Download torrent: Download Kong Skull Island (2017) 1080p BluRay Hindi DD 5.1Ch - Eng DTS 5.1Ch ~ MANN KT torrent Magnet link Bookmark Torrent: Kong Skull Island (2017) 1080p BluRay Hindi DD 5.1Ch - Eng DTS 5.1Ch ~ MANN KT   Kong Skull Island (2017) 1080p BluRay Hindi DD 5.1Ch - Eng DTS 5.1Ch ~ MANN KT torrent
Info hash: 8DEF276EC13BAADC256DADD4BD9D255C4072126E
Category: Categories > Movies
Trackers:
View all torrent trackers >
Health:
 seeds: 0 ,  leechers: 4 |  Update >
Torrent language: English English
Total Size: 9.2 GB
Files List:
3    View torrent files >
Uploader:
THEGABRU
Torrent added: June 5, 2018, 3:56 pm
Users rating: ---, not rated. please login to rate.

Download Kong Skull Island (2017) 1080p BluRay Hindi DD 5.1Ch - Eng DTS 5.1Ch ~ MANN KT torrent



Torrent Description

Kong Skull Island (2017) 1080p BluRay Hindi DD 5.1Ch - Eng DTS 5.1Ch ~ MANN KT



General

Format : Matroska
Format version : Version 4 / Version 2
File size : 9.12 GiB
Duration : 1 h 58 min
Overall bit rate : 11.0 Mb/s
Movie name : MANN KT

Video
ID : 1
Format : AVC
Format/Info : Advanced Video Codec
Format profile :
Format settings, CABAC : Yes
Format settings, ReFrames : 5 frames
Codec ID : V_MPEG4/ISO/AVC
Duration : 1 h 58 min
Bit rate : 9 066 kb/s
Width : 1 920 pixels
Height : 800 pixels
Display aspect ratio : 2.40:1
Frame rate mode : Constant
Frame rate : 23.976 FPS
Color space : YUV
Chroma subsampling : 4:2:0
Bit depth : 8 bits
Scan type : Progressive
Bits/(Pixel*Frame) : 0.246
Stream size : 7.50 GiB (82%)
Title : MANN KT
Language : English
Default : Yes
Forced : No

Audio #1
ID : 2
Format : DTS
Format/Info : Digital Theater Systems
Mode : 16
Format settings, Endianness : Big
Codec ID : A_DTS
Duration : 1 h 58 min
Bit rate mode : Constant
Bit rate : 1 509 kb/s
Channel(s) : 6 channels
Channel positions : Front: L C R, Side: L R, LFE
Sampling rate : 48.0 kHz
Frame rate : 93.750 FPS (512 spf)
Bit depth : 24 bits
Compression mode : Lossy
Stream size : 1.25 GiB (14%)
Title : MANN KT
Language : English
Default : No
Forced : No

Audio #2
ID : 3
Format : AC-3
Format/Info : Audio Coding 3
Mode extension : CM (complete main)
Format settings, Endianness : Big
Codec ID : A_AC3
Duration : 1 h 58 min
Bit rate mode : Constant
Bit rate : 448 kb/s
Channel(s) : 6 channels
Channel positions : Front: L C R, Side: L R, LFE
Sampling rate : 48.0 kHz
Frame rate : 31.250 FPS (1536 spf)
Bit depth : 16 bits
Compression mode : Lossy
Stream size : 379 MiB (4%)
Title : MANN KT
Language : Hindi
Default : Yes
Forced : No

Text #1
ID : 4
Format : VobSub
Muxing mode : zlib
Codec ID : S_VOBSUB
Codec ID/Info : Picture based subtitle format used on DVDs
Duration : 1 h 58 min
Bit rate : 5 159 b/s
Count of elements : 1530
Stream size : 4.36 MiB (0%)
Title : MANN KT
Language : English
Default : No
Forced : No

Text #2
ID : 5
Format : VobSub
Muxing mode : zlib
Codec ID : S_VOBSUB
Codec ID/Info : Picture based subtitle format used on DVDs
Bit rate : 0 b/s
Count of elements : 0
Stream size : 0.00 Byte (0%)
Title : MANN KT
Language : English
Default : No
Forced : No

ScreenShots



Enjoy Guys


Download Kong Skull Island (2017) 1080p BluRay Hindi DD 5.1Ch - Eng DTS 5.1Ch ~ MANN KT torrent


Related Torrents


Comments   (please login to add your comment!)


Home - Browse Torrents

Made with love by an Extratorrent Fan!