extratorrent - A Fan Made Alternative Login   |   Register
Important Information
Registrations are open now
-------------------------------------

Please click here to register with Extratorrent2 to recieve latest updates, add bookmarks and to post comments.

Friends
Friends

1) ProxyFix

Extratorrent2 > Categories > Movies > Interrogation.2016.3D.720p.BluRay.x264-VALUE torrent


Browse Movies torrents

Interrogation.2016.3D.720p.BluRay.x264-VALUE torrent


Interrogation (2016)
Name: Interrogation
Released Year: 2016
Runtime: 93 mins
Gener: Action, Thriller
Director: Stephen Reynolds
Country: USA
IMDB Rating: 4.9/10
Plot: After the FBI receives a threat that endangers the entire city, an interrogator (Copeland) and an I.T. specialist (Perry) are plunged into a series of mind games with a criminal mastermind,...

Download torrent: Download Interrogation.2016.3D.720p.BluRay.x264-VALUE torrent Magnet link Bookmark Torrent: Interrogation.2016.3D.720p.BluRay.x264-VALUE   Interrogation.2016.3D.720p.BluRay.x264-VALUE torrent
Info hash: 3B10357472DC845689E22B92756037DBF81D9ACD
Category: Categories > Movies
Trackers:
View all torrent trackers >
Health:
 seeds: 14 ,  leechers: 15 |  Update >
Torrent language: English English
Total Size: 3.3 GB
Files List:
4    View torrent files >
Uploader:
showstopper
Torrent added: September 12, 2017, 3:37 pm
IMDB: http://www.imdb.com/title/tt4497338
Users rating: ---, not rated. please login to rate.

Download Interrogation.2016.3D.720p.BluRay.x264-VALUE torrent



Torrent Description

Interrogation.2016.3D.720p.BluRay.x264-VALUE

ImDb: http://www.imdb.com/title/tt4497338



Complete name : interrogation.2016.3d.720p.bluray.x264-value.mkv
Format : Matroska
Format version : Version 4 / Version 2
File size : 3.27 GiB
Duration : 1 h 26 min
Overall bit rate : 5 429 kb/s
Encoded date : UTC 2017-09-11 17:16:54
Writing application : mkvmerge v8.5.0 ('Vanishing Act') 64bit
Writing library : libebml v1.3.1 + libmatroska v1.4.2

Video
ID : 1
Format : AVC
Format/Info : Advanced Video Codec
Format profile :
MultiView_Count : 2
MultiView_Layout : Side by Side (left eye first)
Format settings, CABAC : Yes
Format settings, ReFrames : 5 frames
Codec ID : V_MPEG4/ISO/AVC
Duration : 1 h 22 min
Bit rate : 4 886 kb/s
Width : 1 280 pixels
Height : 720 pixels
Display aspect ratio : 16:9
Frame rate mode : Constant
Frame rate : 23.976 (24000/1001) FPS
Color space : YUV
Chroma subsampling : 4:2:0
Bit depth : 8 bits
Scan type : Progressive
Bits/(Pixel*Frame) : 0.221
Stream size : 2.81 GiB (86%)
Writing library : x264 core 152 r2851 ba24899
Encoding settings : cabac=1 / ref=5 / deblock=1:-1:-1 / analyse=0x3:0x133 / me=umh / subme=8 / psy=1 / psy_rd=1.00:0.15 / mixed_ref=1 / me_range=16 / chroma_me=1 / trellis=1 / 8x8dct=1 / cqm=0 / deadzone=21,11 / fast_pskip=0 / chroma_qp_offset=-4 / threads=22 / lookahead_threads=3 / sliced_threads=0 / nr=0 / decimate=1 / interlaced=0 / bluray_compat=0 / constrained_intra=0 / bframes=3 / b_pyramid=2 / b_adapt=2 / b_bias=0 / direct=3 / weightb=1 / open_gop=0 / weightp=2 / keyint=240 / keyint_min=23 / scenecut=40 / intra_refresh=0 / rc_lookahead=50 / rc=2pass / mbtree=1 / bitrate=4886 / ratetol=1.0 / qcomp=0.60 / qpmin=10 / qpmax=69 / qpstep=4 / cplxblur=20.0 / qblur=0.5 / ip_ratio=1.40 / aq=1:1.00
Language : English
Default : Yes
Forced : No

Audio
ID : 2
Format : DTS
Format/Info : Digital Theater Systems
Mode : 16
Format settings, Endianness : Big
Codec ID : A_DTS
Duration : 1 h 26 min
Bit rate mode : Constant
Bit rate : 768 kb/s
Channel(s) : 6 channels
Channel positions : Front: L C R, Side: L R, LFE
Sampling rate : 48.0 kHz
Frame rate : 93.750 FPS (512 spf)
Bit depth : 24 bits
Compression mode : Lossy
Stream size : 474 MiB (14%)
Language : English
Default : Yes
Forced : No

Menu
00:00:00.000 : en:00:00:00.000
00:02:16.470 : en:00:02:16.470
00:06:29.222 : en:00:06:29.222
00:15:20.336 : en:00:15:20.336
00:23:00.588 : en:00:23:00.588
00:31:30.472 : en:00:31:30.472
00:40:30.303 : en:00:40:30.303
00:45:42.281 : en:00:45:42.281
00:52:00.576 : en:00:52:00.576
01:03:19.254 : en:01:03:19.254
01:12:36.269 : en:01:12:36.269
01:20:42.713 : en:01:20:42.713






Click To View Screenshot

Click To View Screenshot

Click To View Screenshot


Download Interrogation.2016.3D.720p.BluRay.x264-VALUE torrent


Related Torrents


Comments   (please login to add your comment!)

shaolin rescuers     missy martinez unleashed     new bollywood 2017     porn 217     1080p test     amateur girl     four     iris 2017     judge judy s22e90     the belle claire     bundle     hotlegsandfeet x265     friends mom     mercies     turks fruit     wetandpuffy paulina soul     sasha banks     zip     aiya     wild alaska 1080p     nothing to hide 1981     alice in wonderland ita     house     season 8     


Home - Browse Torrents

Made with love by an Extratorrent Fan!