extratorrent - A Fan Made Alternative Login   |   Register
Important Information
Registrations are open now
-------------------------------------

Please click here to register with Extratorrent2 to recieve latest updates, add bookmarks and to post comments.

Friends
Friends

1) ProxyFix

Extratorrent2 > Categories > Movies > Spyder (2017) UNCUT 1080p -HDrip x264 Dual Audio [Hindi DD 5.1 - Telugu DD 5.1] torrent


Browse Movies torrents

Spyder (2017) UNCUT 1080p -HDrip x264 Dual Audio [Hindi DD 5.1 - Telugu DD 5.1] torrent


Download torrent: Download Spyder (2017) UNCUT 1080p -HDrip x264 Dual Audio [Hindi DD 5.1 - Telugu DD 5.1] torrent Magnet link Bookmark Torrent: Spyder (2017) UNCUT 1080p -HDrip x264 Dual Audio [Hindi DD 5.1 - Telugu DD 5.1]   Spyder (2017) UNCUT 1080p -HDrip x264 Dual Audio [Hindi DD 5.1 - Telugu DD 5.1] torrent
Info hash: 857C02E5DC2F1CCAF1554DC8A8746DA424B70D40
Category: Categories > Movies
Trackers:
View all torrent trackers >
Health:
 seeds: 44 ,  leechers: 46 |  Update >
Torrent language: Hindi Hindi
Total Size: 3.5 GB
Files List:
1    View torrent files >
Uploader:
kayl1337
Torrent added: May 12, 2018, 4:30 pm
Users rating: ---, not rated. please login to rate.

Download Spyder (2017) UNCUT 1080p -HDrip x264 Dual Audio [Hindi DD 5.1 - Telugu DD 5.1] torrent



Torrent Description

please keep see4ding.........................

please keep seeding............................

please keep seeding.............................


p-lease keep seeding...............................

please keep seeding............................................

please keep seeding.........................................

please keerp- seeding.............................










Spyder (2017) UNCUT 1080p -HDrip x264 Dual Audio [Hindi DD 5.1 - Telugu DD 5.1]





Format version : Version 4 / Version 2
File size : 3.47 GiB
Duration : 2 h 16 min
Overall bit rate : 3 636 kb/s
Movie name : Spyder (2017) UNCUT 1080p WEB-HD x264 Dual Audio [Hindi DD 2.0 - Telugu DD 2.0] ~ Ranvijay

Video
ID : 1
Format : AVC
Duration : 2 h 16 min
Bit rate : 3 221 kb/s
Width : 1 920 pixels
Height : 1 080 pixels
Display aspect ratio : 16:9
Frame rate mode : Constant
Frame rate : 29.970 (30000/1001) FPS
Color space : YUV
Chroma subsampling : 4:2:0
Bit depth : 8 bits
Scan type : Progressive
Bits/(Pixel*Frame) : 0.052
Stream size : 3.07 GiB (89%)
Title : ~Ranvijay~
Language : Telugu
Default : Yes
Forced : No

Audio #1
ID : 2
Format : AAC
Format/Info : Advanced Audio Codec
Format profile : LC
Codec ID : A_AAC-2
Duration : 2 h 16 min
Bit rate : 192 kb/s
Channel(s) : 2 channels
Channel positions : Front: L R
Sampling rate : 48.0 kHz
Frame rate : 46.875 FPS (1024 SPF)
Compression mode : Lossy
Delay relative to video : -67 ms
Stream size : 187 MiB (5%)
Title : ~Ranvijay~
Language : Hindi
Default : Yes
Forced : No

Audio #2
ID : 3
Format : AAC
Format/Info : Advanced Audio Codec
Format profile : LC
Codec ID : A_AAC-2
Duration : 2 h 16 min
Bit rate : 221 kb/s
Channel(s) : 2 channels
Channel positions : Front: L R
Sampling rate : 48.0 kHz
Frame rate : 46.875 FPS (1024 SPF)
Compression mode : Lossy
Delay relative to video : -67 ms
Stream size : 216 MiB (6%)
Title : ~Ranvijay~
Language : Telugu
Default : No
Forced : No









Download Spyder (2017) UNCUT 1080p -HDrip x264 Dual Audio [Hindi DD 5.1 - Telugu DD 5.1] torrent


Related Torrents


Comments   (please login to add your comment!)


Home - Browse Torrents

Made with love by an Extratorrent Fan!